extratorrent - A Fan Made Alternative Login   |   Register
Important Information
Registrations are open now
-------------------------------------

Please click here to register with Extratorrent2 to recieve latest updates, add bookmarks and to post comments.

Friends
Friends

1) Filebebo
-------------------------------------
2) MoviesDig
-------------------------------------
3) Torrentz2.cc
-------------------------------------
4) Torrents.me

Extratorrent2 > Categories > Movies > Koi Mil Gaya (2003) HDTV Rip 720p Hindi H.264 ACC - LatestHDMovies torrent


Browse Movies torrents

Koi Mil Gaya (2003) HDTV Rip 720p Hindi H.264 ACC - LatestHDMovies torrent


Download torrent: Download Koi Mil Gaya (2003) HDTV Rip 720p Hindi H.264 ACC - LatestHDMovies torrent Magnet link Bookmark Torrent: Koi Mil Gaya (2003) HDTV Rip 720p Hindi H.264 ACC - LatestHDMovies   Koi Mil Gaya (2003) HDTV Rip 720p Hindi H.264 ACC - LatestHDMovies torrent
Info hash: 3825DB3595FA762980DC5719DD44403D16EECB89
Category: Categories > Movies
Trackers:
View all torrent trackers >
Health:
 seeds: 13 ,  leechers: 28 |  Update >
Torrent language: Hindi Hindi
Total Size: 1.4 GB
Files List:
1    View torrent files >
Uploader:
LHDM
Torrent added: April 6, 2018, 4:48 am
Tags: Koi, Mil, Gaya, 2003
Users rating: ---, not rated. please login to rate.

Download Koi Mil Gaya (2003) HDTV Rip 720p Hindi H.264 ACC - LatestHDMovies torrent



Torrent Description





[[>>SAMPLE<<]]
http://openload.co/f/XjzXfI26_mo/vlc-record-2018-04-06-03h00m05s-LatestHDMovies___TeamSHAHID-.mp4










General
Unique ID : 171907228023534849944336462418941794222 (0x815420B833F08FEB88F60C5FD0AB57AE)
Complete name : C:\Users\SHAHID\Downloads\Video\Koi Mil Gaya (2003) HDTV Rip 720p Hindi H.264 ACC - LatestHDMovies.mkv
Format : Matroska
Format version : Version 4 / Version 2
File size : 1.39 GiB
Duration : 2 h 37 min
Overall bit rate : 1 261 kb/s
Movie name : LatestHDMovies | TeamSHAHID
Encoded date : UTC 2018-04-05 21:55:16
Writing application : mkvmerge v21.0.0 ('Tardigrades Will Inherit The Earth') 32-bit
Writing library : libebml v1.3.5 + libmatroska v1.4.8
Cover : Yes
Attachments : Cover.jpg

Video
ID : 1
Format : AVC
Format/Info : Advanced Video Codec
Format profile :
Format settings : CABAC / 4 Ref Frames
Format settings, CABAC : Yes
Format settings, ReFrames : 4 frames
Codec ID : V_MPEG4/ISO/AVC
Duration : 2 h 37 min
Bit rate : 1 167 kb/s
Width : 1 280 pixels
Height : 544 pixels
Display aspect ratio : 2.35:1
Frame rate mode : Constant
Frame rate : 25.000 FPS
Color space : YUV
Chroma subsampling : 4:2:0
Bit depth : 8 bits
Scan type : Progressive
Bits/(Pixel*Frame) : 0.067
Stream size : 1.29 GiB (92%)
Title : LatestHDMovies - TeamSHAHID
Writing library : x264 core 155 r2901 7d0ff22
Encoding settings : cabac=1 / ref=3 / deblock=1:0:0 / analyse=0x3:0x113 / me=hex / subme=7 / psy=1 / psy_rd=1.00:0.00 / mixed_ref=1 / me_range=16 / chroma_me=1 / trellis=1 / 8x8dct=1 / cqm=0 / deadzone=21,11 / fast_pskip=1 / chroma_qp_offset=-2 / threads=17 / lookahead_threads=2 / sliced_threads=0 / nr=0 / decimate=1 / interlaced=0 / bluray_compat=0 / constrained_intra=0 / bframes=3 / b_pyramid=2 / b_adapt=1 / b_bias=0 / direct=1 / weightb=1 / open_gop=0 / weightp=2 / keyint=250 / keyint_min=25 / scenecut=40 / intra_refresh=0 / rc_lookahead=40 / rc=abr / mbtree=1 / bitrate=1167 / ratetol=1.0 / qcomp=0.60 / qpmin=0 / qpmax=69 / qpstep=4 / ip_ratio=1.40 / aq=1:1.00
Language : Hindi
Default : Yes
Forced : No

Audio
ID : 2
Format : AAC
Format/Info : Advanced Audio Codec
Format profile : LC
Codec ID : A_AAC-2
Duration : 2 h 37 min
Bit rate : 93.1 kb/s
Channel(s) : 2 channels
Channel positions : Front: L R
Sampling rate : 32.0 kHz
Frame rate : 31.250 FPS (1024 SPF)
Compression mode : Lossy
Delay relative to video : -64 ms
Stream size : 105 MiB (7%)
Title : LatestHDMovies - TeamSHAHID
Language : Hindi
Default : Yes
Forced : No






Download Koi Mil Gaya (2003) HDTV Rip 720p Hindi H.264 ACC - LatestHDMovies torrent


Related Torrents


Comments   (please login to add your comment!)

angry birds all     clips4sale alice merchesi     toriblack     faketaxi anal     n1033     nowhere to hide     chandni 1989     adobe     raazi     nauana     cock in the stall     forced     mandy flores mom son     antoni     stack 3     rebecca lord     buried 2011     xxx 2018     brazzers tina kay doctors high school crush     fucking the neighbor     hindi 1080p     russian classic     bonbon     hindi pgs     


Home - Browse Torrents

Made with love by an Extratorrent Fan!